<?xml version="1.0" standalone="no"?> <!DOCTYPE svg PUBLIC "-//W3C//DTD SVG 1.0//EN" "http://www.w3.org/TR/2001/REC-SVG-20010904/DTD/svg10.dtd" > <svg xmlns="http://www.w3.org/2000/svg" width="100%" height="100%">
<defs >
<font id="channel_left-slanted" horiz-adv-x="674" ><font-face
    font-family="Channel Left-Slanted"
    units-per-em="800"
    panose-1="0 0 0 0 0 0 0 0 0 0"
    ascent="600"
    descent="-200"
    alphabetic="0" />
<missing-glyph horiz-adv-x="500" />
<glyph unicode=" " glyph-name="space" horiz-adv-x="500" />
<glyph unicode="!" glyph-name="exclam" horiz-adv-x="265" d="M72 255Q58 264 45 288Q33 308 20 347T-7 452Q-20 518 -30 587T-46 716T-52 823T-44 889Q-37 908 -17 914T27 913T69 880T95 812Q99 783 97 739T91 642T82 533T72 425T68 328T72 255ZM34 52Q40 23
65 3T119 -16Q148 -15 164 6T175 56Q169 85 144 105T90 125Q61 124 45 103T34 52Z" />
<glyph unicode="&quot;" glyph-name="quotedbl" horiz-adv-x="255" d="M-124 634Q-125 663 -105 680T-54 693Q-20 688 2 663Q10 679 27 687T65 693Q80 691 93 684T118 666T135 642T142 613Q146 589 142 566T129 523T112 489T96 466Q90 458 81 458T66 462T57 476T63
496Q72 508 67 525T53 558Q38 564 23 575Q19 537 3 508T-23 466Q-29 458 -38 458T-53 462T-62 476T-56 496Q-47 508 -52 525T-66 558Q-91 566 -107 587T-124 634Z" />
<glyph unicode="#" glyph-name="numbersign" horiz-adv-x="490" d="M348 326Q376 324 387 316T398 298T387 282T360 275Q325 275 293 275T230 275T166 276T97 276Q54 276 33 283T4 301Q-6 312 -4 326Q48 321 99 321T196 324T281 327T348 326ZM219 345Q216 373
233 388T271 408T312 406T335 383Q341 348 346 316T357 253T368 189T380 120Q388 77 373 52T338 13Q314 -3 281 -8Q277 43 268 94T248 192T230 278T219 345ZM41 345Q38 373 55 388T93 408T134 406T157 383Q163 348 168 316T179 253T190 189T202 120Q210 77 195
52T160 13Q136 -3 103 -8Q99 43 90 94T70 192T52 278T41 345ZM378 129Q406 127 417 119T428 101T417 85T390 78Q355 78 323 78T260 78T196 79T127 79Q84 79 63 86T33 104Q23 115 25 129Q77 124 128 124T225 127T311 130T378 129Z" />
<glyph unicode="$" glyph-name="dollar" horiz-adv-x="1186" d="M338 284Q249 308 181 332T65 386T-11 455T-49 548Q-58 601 -31 641T44 708T155 751T279 769Q274 774 272 785Q270 798 276 806T296 815Q309 815 319 807T331 785Q332 778 330 770Q389 768 438 756T525
725T588 680T622 627Q631 598 628 579T615 546T588 528T555 522Q530 522 512 539T489 576Q485 597 498 614T539 631Q549 631 559 628T579 619Q590 614 599 607Q593 647 561 679Q547 692 527 705T476 729T406 745T314 752Q247 752 190 738T94 701T42 647T51 584T135
519T311 460Q318 479 341 479Q356 479 369 469T385 443Q458 425 519 401T625 346T700 273T738 180Q748 124 731 83T675 15T580 -25T454 -39Q459 -43 462 -48T467 -60Q469 -72 462 -81T442 -90Q429 -90 420 -81T408 -60Q405 -47 413 -38Q347 -35 285 -21T172 17T88
73T48 143Q44 165 52 178T74 196T106 200T140 189Q154 181 163 164T172 129T160 95T124 71Q137 53 169 37T244 8T330 -12T412 -20Q473 -20 523 -7T604 29T644 80T633 140T559 203T414 263Q408 242 383 242Q367 242 355 252T339 279L338 284Z" />
<glyph unicode="%" glyph-name="percent" horiz-adv-x="500" d="M-85 593Q-89 614 -84 633T-68 666T-39 689T0 697Q21 697 41 689T78 667T106 633T122 593Q126 572 121 553T104 520T75 497T36 489Q15 489 -5 497T-41 519T-69 553T-85 593ZM-10 585Q-5 557 14 538T57
518Q80 518 93 537T101 585Q96 613 77 632T34 652Q11 652 -2 633T-10 585ZM246 128Q242 149 247 168T264 201T293 224T332 232Q353 232 373 224T410 202T438 168T454 128Q458 107 453 88T436 55T407 32T368 24Q347 24 327 32T290 54T262 88T246 128ZM321 120Q326
92 346 73T389 53Q412 53 425 72T433 120Q428 148 409 167T366 187Q343 187 330 168T321 120ZM301 631Q326 681 342 705T365 731T369 718T350 671Q320 607 293 548T238 431T182 313T122 187Q84 108 60 66T21 5Q3 -18 -6 -20Q41 73 85 167T168 348T241 508T301 631Z"
/>
<glyph unicode="&amp;" glyph-name="ampersand" horiz-adv-x="963" d="M442 686Q435 722 456 747T513 773Q534 773 554 764Q546 791 531 820T489 872T422 910T323 925Q277 925 246 902T196 840T172 754T172 654T198 555T247 470T319 410T414 389Q438 389 451 382T465
367T457 352T426 345Q350 345 300 318T221 246T184 144T185 28T221 -89T286 -190T375 -262T485 -290Q529 -290 559 -269T608 -213T638 -138T653 -59T658 11T657 57Q656 78 660 87T672 95T685 80T693 41Q694 25 693 -12T685 -94T664 -187T623 -276T559 -341T466
-367Q378 -367 298 -334T155 -245T52 -113T2 49T20 227T120 408Q50 482 22 552T-3 685T31 798T107 887T211 944T326 965Q380 965 421 951T493 914T545 862T580 804T601 748T611 702Q613 698 613 695T616 686Q622 650 601 625T544 600Q526 600 509 606T478 625T455
652T442 686ZM280 365Q273 369 283 371T313 376T359 380T410 388T456 401T486 424Q510 468 530 502T567 545T598 528T623 426Q653 420 683 413T737 398T779 385T803 379Q811 379 816 381T826 386T834 389T846 386Q852 382 853 377T848 361T826 335T784 293Q762
272 727 274T649 289Q663 214 681 158Q704 82 737 36T804 -11Q821 -11 839 3T873 34Q891 53 909 79Q912 84 916 88Q925 95 935 89Q947 81 943 75T936 65Q935 64 929 51T912 21T883 -17T845 -55T796 -84T736 -96Q703 -96 677 -82T629 -45T591 6T563 63T544 116T534
158Q531 174 522 224T500 341Q491 343 469 345T422 348T376 349T349 347Q318 337 306 337T291 342T287 354T280 365Z" />
<glyph unicode="&apos;" glyph-name="quotesingle" horiz-adv-x="0" d="M-324 634Q-325 663 -305 680T-254 693Q-239 691 -226 684T-201 666T-184 642T-177 613Q-173 589 -177 566T-190 523T-207 489T-223 466Q-229 458 -238 458T-253 462T-262 476T-256 496Q-247
508 -252 525T-266 558Q-291 566 -307 587T-324 634Z" />
<glyph unicode="(" glyph-name="parenleft" horiz-adv-x="296" d="M-43 267Q-53 331 -44 383T-15 475T31 544T81 592T124 622T148 636Q155 640 164 641T179 640T186 634T178 624Q170 618 150 594T111 526T83 418T89 267Q99 210 117 158T157 61T202 -21T245 -87T280
-132T301 -155Q310 -163 313 -170T314 -182T304 -186T283 -177Q274 -172 250 -155T192 -110T122 -44T52 42T-7 146T-43 267Z" />
<glyph unicode=")" glyph-name="parenright" horiz-adv-x="296" d="M246 268Q259 204 254 148T232 44T191 -41T144 -106T103 -151T77 -174Q67 -182 60 -183T48 -180T44 -168T51 -152Q57 -144 73 -110T103 -20T122 109T113 268Q98 354 67 418T2 526T-61 594T-100
624Q-110 630 -110 634T-106 640T-92 641T-74 636Q-68 633 -46 623T8 593T75 544T145 475T206 384T246 268Z" />
<glyph unicode="*" glyph-name="asterisk" horiz-adv-x="307" d="M83 442Q90 455 104 457T133 454T156 440T161 422Q146 386 132 356T100 288Q90 265 74 258T41 252Q23 253 2 261Q17 286 28 312T50 362T67 407T83 442ZM-3 384Q-17 396 -18 411T-15 438T-1 455T17
454Q53 425 84 400T151 346Q173 328 180 310T186 275Q185 257 177 239Q152 263 126 284T76 323T31 356T-3 384ZM156 398Q172 399 184 388T203 364T210 339T199 327Q157 322 122 319T44 311Q18 308 0 317T-29 340Q-42 355 -51 375Q-20 375 9 378T66 386T116 394T156
398Z" />
<glyph unicode="+" glyph-name="plus" horiz-adv-x="490" d="M272 326Q300 324 319 305T346 263T351 222T332 203Q297 203 265 203T202 203T138 204T69 204Q26 204 -2 223T-48 265Q-68 291 -80 326Q-28 321 23 321T120 324T205 327T272 326ZM64 404Q61 432 78
447T117 467T158 465T181 442Q187 407 192 375T203 312T214 248T226 179Q234 136 219 111T184 72Q160 56 127 51Q122 102 113 153T93 251T75 337T64 404Z" />
<glyph unicode="," glyph-name="comma" horiz-adv-x="218" d="M36 174Q35 203 55 220T106 233Q121 231 134 224T159 206T177 182T184 153Q187 129 183 106T170 63T153 29T137 6Q131 -2 122 -2T107 2T98 16T104 36Q113 48 108 65T94 98Q69 106 53 127T36 174Z" />
<glyph unicode="-" glyph-name="hyphen" horiz-adv-x="490" d="M272 326Q300 324 319 305T346 263T351 222T332 203Q297 203 265 203T202 203T138 204T69 204Q26 204 -2 223T-48 265Q-68 291 -80 326Q-28 321 23 321T120 324T205 327T272 326Z" />
<glyph unicode="." glyph-name="period" horiz-adv-x="210" d="M28 161Q22 190 38 211T84 234Q113 235 138 215T168 165Q174 136 158 115T113 93Q84 92 59 112T28 161Z" />
<glyph unicode="/" glyph-name="slash" horiz-adv-x="490" d="M310 518Q335 568 351 592T374 618T378 605T359 558Q329 494 302 435T246 318T190 200T130 74Q92 -5 68 -47T29 -108Q11 -131 2 -133Q49 -40 93 54T177 235T250 395T310 518Z" />
<glyph unicode="0" glyph-name="zero" horiz-adv-x="529" d="M118 532Q163 532 206 511T285 452T347 364T383 256Q393 199 385 150T354 63T296 4T215 -18Q170 -18 127 3T49 62T-13 149T-49 256Q-59 313 -51 363T-20 451T38 510T118 532ZM279 56Q304 60 322 80T350
130T360 198T350 278Q339 320 321 355T278 415T228 452T176 461Q150 456 132 437T105 387T95 318T105 237Q116 195 135 160T177 101T227 64T279 56Z" />
<glyph unicode="1" glyph-name="one" horiz-adv-x="457" d="M-57 372Q-53 376 -43 389T-20 419T9 454T41 488T71 514T98 524Q115 524 136 515T175 490T208 454T226 414Q228 401 235 364T251 279T269 178T285 80T293 2T290 -36Q281 -45 257 -43T206 -32T157 -8T128
24Q124 35 120 68T110 144T99 233T87 319T73 383T57 409Q44 409 31 402T6 386T-16 366T-33 349Q-41 342 -47 342T-58 347T-63 359T-57 372Z" />
<glyph unicode="2" glyph-name="two" horiz-adv-x="537" d="M-15 357Q-23 349 -29 349T-40 354T-44 365T-42 374Q-40 377 -25 398T17 444T77 492T150 518T231 501T314 419Q344 376 350 340T346 274T314 220T263 178T205 146T150 122T109 107T93 98Q93 94 114 92T166
89T236 88T307 88T365 86T394 82Q401 78 402 64T402 34T395 3T385 -19Q381 -23 358 -26T300 -31T225 -33T150 -34T89 -33T57 -30Q48 -28 36 -11T12 28T-7 70T-12 98Q-10 105 -1 108T29 115T83 129T166 158Q203 173 220 198T239 253T232 312T204 366T163 405T117
420Q83 420 60 412T22 394T-2 373T-15 357Z" />
<glyph unicode="3" glyph-name="three" horiz-adv-x="491" d="M221 235Q252 220 279 200T325 155T348 101T339 35Q319 -16 287 -33T217 -48T140 -26T69 13T16 52T-7 73Q-11 76 -12 81T-12 89T-5 93T10 86Q16 82 28 74T58 56T101 41T158 34Q180 34 197 48T223 84T229
133T212 186Q203 198 192 205T172 216Q161 220 150 222Q137 222 129 225T118 234Q117 239 125 242T146 246Q158 246 166 251T181 262T190 276T195 288Q200 313 192 339T168 386T131 422T87 436Q55 436 33 430T-4 414T-28 397T-41 384Q-48 377 -53 377T-62 380T-67
389T-65 398Q-63 400 -48 418T-9 457T48 496T117 518T192 503T269 434Q296 398 301 369T298 315T268 270T221 235Z" />
<glyph unicode="4" glyph-name="four" horiz-adv-x="620" d="M397 431Q405 410 414 369T433 278T450 175T463 77T470 1T466 -36Q459 -45 437 -44T388 -35T337 -11T304 24Q301 31 297 48T289 88T279 139T270 198Q255 177 236 162T193 140T139 137T73 158Q7 188
-20 226T-51 305T-39 383T-5 452T33 501T53 523Q57 527 63 527T74 525T80 516T74 500Q70 495 62 484T47 456T36 413T38 354Q43 327 67 305T125 270T194 257T257 279Q251 321 247 361T240 432T237 484T241 509Q248 516 268 517T313 509T361 481T397 431Z" />
<glyph unicode="5" glyph-name="five" horiz-adv-x="615" d="M22 125Q29 120 47 110T91 90T149 73T215 65Q249 65 272 88T296 143T271 209T181 266Q149 277 120 285T65 298T20 307T-10 313Q-15 314 -18 329T-22 366T-23 413T-20 461T-13 498T-4 515Q1 516 26 517T87
518T162 518T238 515T298 510T328 503Q335 496 345 481T363 450T374 421T371 403Q367 399 337 398T265 397T182 396T111 393Q103 393 98 383T91 361T88 338T87 326Q88 323 106 320T151 312T213 298T280 277T344 246T394 202T420 142T412 65Q392 4 355 -17T273 -34T181
-8T95 39T31 85T2 109Q-1 113 -2 119T-2 129T5 134T22 125Z" />
<glyph unicode="6" glyph-name="six" horiz-adv-x="586" d="M194 414Q235 408 272 389T340 342T391 277T419 199Q427 154 417 115T382 46T320 -1T236 -18Q190 -18 147 -1T68 45T8 114T-24 199Q-34 263 -9 318Q-1 341 15 377T52 454T93 537T134 612T168 667T189
690Q199 693 215 684T247 658T270 615T272 559Q266 536 244 498T194 414ZM304 40Q331 44 350 59T381 99T394 153T387 217Q378 250 355 281T302 336T240 372T179 381Q159 348 147 315Q136 286 130 252T134 184Q143 151 161 123T202 76T251 47T304 40Z" />
<glyph unicode="7" glyph-name="seven" horiz-adv-x="586" d="M198 -199Q189 -199 174 -191T145 -169T122 -134T115 -89Q116 -72 125 -30T146 65T170 175T189 280T197 359T186 390Q154 390 124 388T68 385T20 386T-18 399Q-34 409 -49 425T-75 459T-87 491T-79
511Q-72 515 -39 516T41 518T139 515T238 510T318 503T359 494Q369 488 369 455T360 372T338 261T308 136T274 12T241 -95T214 -170T198 -199Z" />
<glyph unicode="8" glyph-name="eight" horiz-adv-x="556" d="M285 148Q337 123 373 79T419 -20Q426 -61 416 -96T383 -158T324 -200T246 -216Q202 -216 161 -201T87 -159T31 -97T1 -20Q-7 34 12 78T74 148Q23 174 -13 218T-58 317Q-65 357 -55 392T-22 454T37
495T115 511Q158 511 199 496T273 454T328 393T358 317Q367 262 347 218T285 148ZM169 461Q145 458 127 444T97 408T84 359T90 302Q98 272 115 247T153 205T200 179T250 173Q274 176 292 190T322 225T335 274T329 332Q321 361 304 386T266 428T219 455T169 461ZM310
-163Q334 -160 352 -146T381 -111T394 -62T388 -4Q380 25 363 50T325 92T278 118T229 124Q205 121 187 107T158 72T145 23T150 -34Q159 -64 176 -89T214 -131T261 -157T310 -163Z" />
<glyph unicode="9" glyph-name="nine" horiz-adv-x="579" d="M173 80Q132 86 95 105T27 152T-24 217T-52 295Q-60 340 -50 379T-14 448T48 495T131 512Q177 512 220 495T299 449T359 380T391 295Q397 262 393 232T376 176Q367 153 351 117T315 40T274 -43T233
-118T199 -173T178 -196Q168 -199 151 -190T119 -164T96 -121T95 -65Q100 -42 122 -4T173 80ZM62 454Q36 450 17 435T-14 395T-26 341T-19 277Q-10 244 13 213T65 158T127 121T188 113Q208 145 220 178Q231 207 236 242T233 310Q224 343 206 371T165 418T115 447T62
454Z" />
<glyph unicode=":" glyph-name="colon" horiz-adv-x="210" d="M28 161Q22 190 38 211T84 234Q113 235 138 215T168 165Q174 136 158 115T113 93Q84 92 59 112T28 161ZM-15 411Q-21 440 -5 461T40 484Q69 485 93 465T124 415Q130 386 114 365T69 343Q40 342 16
362T-15 411Z" />
<glyph unicode=";" glyph-name="semicolon" horiz-adv-x="210" d="M-15 411Q-21 440 -5 461T40 484Q69 485 93 465T124 415Q130 386 114 365T69 343Q40 342 16 362T-15 411ZM26 174Q25 203 45 220T96 233Q111 231 124 224T149 206T167 182T174 153Q177 129 173
106T160 63T143 29T127 6Q121 -2 112 -2T97 2T88 16T94 36Q103 48 98 65T84 98Q59 106 43 127T26 174Z" />
<glyph unicode="&lt;" glyph-name="less" horiz-adv-x="286" d="M110 464Q125 461 140 443T167 403T185 359T186 325Q182 314 165 295T128 255T93 216T80 190Q81 184 91 176T114 156T143 134T171 111T191 89T195 71Q192 63 176 70T136 92T87 129T37 170T-2 209T-19
235Q-21 243 -15 264T2 311T27 366T56 416T85 452T110 464Z" />
<glyph unicode="=" glyph-name="equal" horiz-adv-x="490" d="M258 406Q286 404 305 385T332 343T337 302T318 283Q248 283 187 283T54 284Q11 284 -17 303T-62 345Q-82 371 -94 406Q-42 401 9 401T106 404T191 407T258 406ZM283 266Q311 264 330 245T357 203T362
162T342 143Q307 143 275 143T212 143T148 144T79 144Q36 144 8 163T-37 205Q-57 231 -69 266Q-17 261 33 261T130 264T215 267T283 266Z" />
<glyph unicode="&gt;" glyph-name="greater" horiz-adv-x="286" d="M7 467Q17 469 36 455T78 419T125 368T170 313T203 266T219 236Q221 228 211 210T186 171T151 129T113 92T81 70T60 71Q51 82 62 99T89 133T120 166T134 191Q133 196 123 206T97 229T63 256T28
283T-2 308T-20 327Q-29 339 -31 361T-29 405T-16 446T7 467Z" />
<glyph unicode="?" glyph-name="question" horiz-adv-x="556" d="M141 192Q138 204 133 232T129 294T148 359T206 408Q260 431 281 480T297 589T262 712T187 825T81 906T-48 931Q-101 926 -134 910T-188 871T-217 823T-229 775Q-218 784 -200 785Q-174 788 -150
770T-119 726Q-112 698 -126 678T-167 654Q-193 652 -217 669T-249 715Q-249 719 -250 721Q-250 724 -251 727T-253 735Q-260 760 -255 795T-226 864T-157 923T-37 955Q54 963 129 945T263 888T361 789T421 653Q440 577 428 528T387 449T326 404T270 381Q235 367
213 343T178 291T163 237T165 193Q171 176 169 169T162 161T151 169T141 192ZM126 6Q132 -23 157 -43T211 -62Q240 -61 256 -40T267 10Q261 39 237 59T183 79Q154 78 138 57T126 6Z" />
<glyph unicode="@" glyph-name="at" horiz-adv-x="852" d="M574 -84Q670 -70 730 -13T807 128L820 55Q802 3 770 -40T694 -113T596 -161T479 -178Q390 -178 306 -145T153 -53T37 83T-26 250Q-42 339 -22 417T46 554T166 646T328 680Q384 680 436 659T533 603T618
519T688 417T743 304T780 190H753Q751 196 746 214T733 252T720 291T711 315Q681 390 637 455T536 565T414 632T274 644Q200 634 147 597T66 504T37 377T67 231Q98 156 153 94T278 -11T423 -74T574 -84ZM765 206Q776 206 778 196Q778 195 768 174T738 128T689 83T620
62Q593 62 568 80T523 120T491 161T477 182Q476 180 469 161T446 120T408 80T354 62Q303 62 268 91T217 165T209 261T251 361Q276 394 306 411T368 434Q396 440 422 438T467 431T496 418T504 405Q500 399 496 400T483 404T460 411T423 415Q402 415 382 406T345
380T317 341T303 294Q298 258 306 230T328 182T360 153T392 143Q417 143 431 158T452 196T461 245T465 294T470 331T484 346Q494 346 506 330T532 290T562 237T596 184T633 143T673 127Q688 127 700 133T720 148Q730 158 737 170L755 199Q757 206 765 206Z" />
<glyph unicode="A" glyph-name="A" horiz-adv-x="1181" d="M1068 29Q1096 11 1107 -6T1110 -35T1074 -50T996 -45Q962 -39 908 0T787 105Q710 103 622 103T445 103T269 108T110 116Q86 17 63 -74T21 -239T-12 -361T-34 -423Q-45 -441 -57 -446T-79 -446T-93 -427T-92
-390Q-90 -381 -78 -337T-48 -223T-6 -65T43 121Q12 123 -13 126T-58 132Q-140 145 -199 169T-296 220Q-341 249 -371 283Q-280 265 -165 258T78 251Q110 372 141 488T197 695Q225 801 251 896Q239 915 231 933Q224 948 220 964T221 991Q226 1001 245 1009T290
1019T340 1018T382 1001Q390 994 407 960T449 871T509 746T587 598T684 439T801 280Q853 282 890 283T949 283Q1001 280 1032 262T1074 220T1078 172T1046 131Q1038 126 1016 122T959 114Q1011 68 1068 29ZM143 252Q273 254 399 259T635 271Q585 331 536 398T442
536T356 682T285 831Q280 815 267 761T234 629T192 453T143 252Z" />
<glyph unicode="B" glyph-name="B" horiz-adv-x="1080" d="M601 468Q760 392 849 297Q887 256 913 208T943 103T920 -15T827 -146Q768 -206 708 -241T589 -293T473 -310T363 -298T260 -266T167 -220Q180 -292 192 -354T213 -464T229 -542T239 -581Q248 -606 245
-624T232 -643T206 -623T175 -549Q170 -533 163 -499T146 -416T125 -307T101 -179Q48 -143 11 -112T-43 -68Q-71 -47 -102 -25T-159 17T-197 55T-203 85Q-197 94 -173 86T-110 55T-23 0T82 -73Q67 15 51 108T20 289T-8 459T-33 606Q-78 580 -123 556T-213 513T-300
480T-383 460Q-461 449 -522 462T-628 500T-704 558T-751 622T-771 674T-767 702Q-764 705 -755 702Q-748 700 -735 692T-702 665Q-669 640 -624 635T-528 637T-423 663T-316 704T-218 752T-136 799Q-101 820 -60 847T28 899T129 940T243 957T369 937T509 866Q563
828 596 791T645 719T665 651T664 591Q653 526 601 468ZM512 792Q480 829 428 827T311 797T170 726T14 635Q22 589 32 534T53 418Q87 423 145 441T266 487T389 550T488 625T538 707T512 792ZM148 -117Q211 -153 290 -167T448 -176T601 -143T729 -72T810 37T824
181Q812 249 779 291T698 354T592 380T473 379T350 357T237 325T143 292T80 266Q97 171 114 74T148 -117Z" />
<glyph unicode="C" glyph-name="C" horiz-adv-x="964" d="M824 45Q830 63 838 70T853 76T862 63T857 32Q852 19 843 -7T816 -65T774 -131T711 -194T622 -243T504 -269Q436 -274 374 -255T257 -198T154 -108T68 6T2 133T-42 266Q-59 332 -60 405T-49 550T-6 689T69
808T177 893T320 933Q417 940 490 917T615 857T696 777T734 701Q736 696 736 692T738 683Q740 681 740 679T741 674Q745 656 743 640T732 612T709 591T678 582Q660 581 643 586T612 602T587 628T572 661Q567 679 570 695T581 723T603 744T635 753Q657 754 677 746Q659
773 632 803T565 857T472 895T350 904Q283 899 240 849T176 720T153 542T169 342T221 144T306 -25T420 -140T562 -177Q606 -174 642 -159T706 -122T755 -75T790 -26T813 17T824 45Z" />
<glyph unicode="D" glyph-name="D" horiz-adv-x="987" d="M207 932Q267 932 336 909T473 843T603 741T711 612T784 464T806 302T762 135T638 -29Q584 -81 522 -108T395 -145T263 -147T131 -123Q132 -135 128 -142T114 -149T94 -138T73 -105Q-12 -77 -86 -40T-216
31Q-281 71 -336 112Q-338 123 -335 129Q-333 134 -326 134T-303 123Q-292 115 -262 92T-184 41T-75 -18T61 -71Q53 -40 41 24T15 171T-14 346T-42 523T-66 680T-83 791Q-185 791 -295 788T-525 784Q-556 784 -591 793T-658 817T-719 850T-764 885T-786 915T-777
935Q-767 939 -719 941T-600 945T-442 945T-264 943Q-54 939 207 932ZM332 -113Q417 -113 481 -74T586 30T644 174T653 337T612 494T517 624Q463 672 401 703T270 753T126 780T-32 790Q-25 747 -13 674T15 514T46 333T76 156T103 8T122 -87Q171 -99 223 -106T332
-113Z" />
<glyph unicode="E" glyph-name="E" horiz-adv-x="833" d="M442 686Q435 722 456 747T513 773Q534 773 554 764Q546 791 531 820T489 872T422 910T323 925Q277 925 246 902T196 840T172 754T172 654T198 555T247 470T319 410T414 389Q438 389 451 382T465 367T457
352T426 345Q350 345 300 318T221 246T184 144T185 28T221 -89T286 -190T375 -262T485 -290Q529 -290 559 -269T608 -213T638 -138T653 -59T658 11T657 57Q656 78 660 87T672 95T685 80T693 41Q694 25 693 -12T685 -94T664 -187T623 -276T559 -341T466 -367Q378
-367 298 -334T155 -245T52 -113T2 49T20 227T120 408Q50 482 22 552T-3 685T31 798T107 887T211 944T326 965Q380 965 421 951T493 914T545 862T580 804T601 748T611 702Q613 698 613 695T616 686Q622 650 601 625T544 600Q526 600 509 606T478 625T455 652T442
686Z" />
<glyph unicode="F" glyph-name="F" horiz-adv-x="894" d="M601 782Q563 776 501 771T360 762T194 756T16 752Q22 720 31 671T51 560T74 426T101 276Q182 271 275 267T459 263T632 268T774 287Q761 262 737 240Q717 221 683 203T595 175Q565 170 514 166T398 158T263
154T124 153Q139 67 154 -18T184 -182T211 -330T234 -452T252 -539T262 -581Q271 -606 268 -624T255 -643T229 -623T198 -549Q190 -523 177 -454T145 -289T107 -79T67 153Q22 154 -18 155T-89 159T-142 165T-172 174Q-193 186 -204 204T-214 239T-195 270T-142
287Q-121 288 -72 286T44 279Q31 356 19 428T-3 562T-21 672T-34 752Q-119 752 -198 753T-340 758T-446 767T-503 780Q-533 796 -549 820T-563 869T-536 911T-459 933Q-433 935 -377 933T-244 926T-74 917T120 908T324 902T525 902T708 911T861 933Q841 899 807
870Q777 844 728 820T601 782Z" />
<glyph unicode="G" glyph-name="G" horiz-adv-x="894" d="M692 250Q706 233 718 198T742 117T762 15T777 -99T788 -215T793 -327Q794 -406 779 -460T744 -549Q722 -589 693 -613Q697 -490 682 -381T644 -177Q611 -215 561 -242T437 -274Q378 -278 324 -257T221
-197T130 -105T54 10T-5 139T-46 272Q-62 338 -64 411T-57 555T-22 691T42 808T134 890T257 926Q341 931 408 907T522 844T598 762T635 686Q640 664 640 656Q642 653 642 650T643 642Q646 624 643 609T629 582T605 564T573 557Q537 557 508 582T472 642Q466 678
486 703T543 728Q567 728 590 715Q575 742 550 775T488 836T400 883T284 897Q226 894 190 845T136 718T118 542T135 343T184 145T261 -26T362 -144T486 -184Q532 -181 567 -162T629 -115Q603 -19 581 54T553 179Q547 231 560 259T595 293T644 289T692 250Z" />
<glyph unicode="H" glyph-name="H" horiz-adv-x="915" d="M671 271Q724 268 754 250T796 207T801 159T769 118Q755 109 700 103T561 94Q583 -22 603 -129T639 -320T666 -458T682 -525Q691 -552 689 -572T676 -592T650 -570T617 -489Q611 -466 600 -411T573 -278T540
-106T503 92Q434 90 355 90T194 91Q214 -16 232 -113T264 -287T289 -413T304 -474Q313 -500 310 -518T297 -537T271 -517T239 -441Q233 -420 223 -370T199 -248T169 -90T136 92Q63 93 -7 96T-140 102T-252 110T-336 120Q-417 133 -476 157T-573 208Q-618 237 -648
271Q-576 256 -486 249T-297 240T-95 240T109 246Q86 377 65 501T27 725Q8 840 -9 943Q-12 967 -7 978T8 990T26 979T40 945Q42 934 53 871T82 712T121 495T166 248Q252 253 330 257T473 265Q461 334 449 402T425 535T404 659T384 770Q363 891 345 998Q341 1025
346 1037T361 1050T380 1037T395 1000Q397 992 402 960T417 876T439 756T466 609T497 444T529 268Q579 270 615 271T671 271Z" />
<glyph unicode="I" glyph-name="I" horiz-adv-x="471" d="M316 -576Q278 -552 242 -512Q210 -478 176 -424T114 -289Q100 -249 83 -178T46 -18T6 174T-32 379T-66 577T-92 749T-105 877T-103 942Q-92 968 -70 980T-23 985T25 951T61 871Q67 845 75 784T95 638T119
449T148 233T182 7T221 -214T265 -414T316 -576Z" />
<glyph unicode="J" glyph-name="J" horiz-adv-x="813" d="M515 891Q567 890 595 885T632 872T631 858T595 845Q585 843 559 842T494 838Q508 794 530 717T575 544T615 340T636 125T626 -79T572 -250T460 -369T277 -413Q226 -413 185 -400T111 -364T55 -315T15
-260T-11 -208T-25 -166Q-30 -141 -27 -132T-17 -124T-2 -136T9 -159Q13 -172 22 -197T57 -247T129 -291T253 -310Q318 -310 356 -269T410 -158T427 2T414 191T382 388T341 575T301 730T271 833Q202 831 127 830T-23 829T-171 828T-307 828T-422 830T-507 833Q-543
835 -574 837T-631 843Q-677 848 -709 852T-763 861T-794 873T-805 891Q-805 903 -789 904T-747 902T-692 892T-635 884Q-533 876 -416 874T-181 873T51 877T258 884Q257 893 257 904T259 928Q261 939 283 954T334 981T389 998T428 993Q438 984 446 970T460 940T470
912T476 891H515V891Z" />
<glyph unicode="K" glyph-name="K" horiz-adv-x="883" d="M1847 -328Q1874 -311 1889 -309T1911 -312T1916 -330T1904 -355Q1896 -366 1867 -396T1791 -463T1680 -541T1539 -611T1373 -657T1187 -663T984 -611T768 -483T546 -264T320 65Q258 18 221 -32T164 -131T138
-223T132 -300Q146 -372 156 -417T169 -474Q178 -500 175 -518T162 -537T137 -517T105 -441Q100 -423 92 -384T72 -289T49 -164T22 -18T-6 141T-35 305Q-85 594 -144 943Q-147 967 -142 978T-127 990T-108 979T-93 945Q-91 935 -81 879T-55 735T-20 537T21 308T63
73T103 -147Q115 -110 135 -68T187 19T263 106T368 188Q441 235 484 294T549 417T576 542T578 656T568 747T559 800Q556 822 569 852T603 908T650 949T699 956Q714 951 734 909T766 799T772 647T731 472T621 293T420 129Q387 112 355 91Q369 71 404 24T496 -84T628
-208T799 -328T1009 -422T1254 -468T1534 -444T1847 -328Z" />
<glyph unicode="L" glyph-name="L" horiz-adv-x="441" d="M1083 -269Q997 -257 887 -257T656 -262T414 -281T182 -305Q200 -404 213 -468T232 -546Q240 -571 237 -589T224 -608T198 -588T167 -514Q161 -492 150 -440T125 -312Q63 -319 9 -325T-90 -337T-168 -345T-220
-348Q-273 -348 -304 -332T-348 -292T-355 -243T-326 -200Q-316 -192 -279 -184T-185 -169T-57 -156T94 -145Q80 -70 66 12T37 177T10 340T-16 494Q-44 665 -72 832Q-76 856 -71 867T-56 879T-38 867T-23 834Q-21 825 -12 777T10 653T41 481T77 279T115 65T153
-142Q243 -137 334 -134T507 -130T656 -129T764 -135Q845 -143 904 -165T1004 -210Q1051 -237 1083 -269Z" />
<glyph unicode="M" glyph-name="M" horiz-adv-x="1406" d="M1131 548Q1142 526 1157 479T1190 368T1226 230T1259 79T1285 -69T1301 -201T1303 -300T1285 -354Q1268 -369 1252 -358T1219 -324T1181 -274T1135 -228Q1122 -219 1111 -167T1086 -35T1057 141T1019
337T965 528T892 689T794 795T666 820Q646 817 629 806T597 781T573 753T556 727Q589 668 619 594T675 438T722 271T761 106T792 -47T812 -175T822 -266T822 -308Q814 -326 791 -325T740 -302T681 -240T630 -138Q590 124 542 331Q521 419 497 503T444 653T384 759T319
800Q264 800 231 768T181 682T161 554T165 399T185 229T214 60T245 -97T271 -227T285 -317T279 -354Q256 -360 239 -348T206 -316T172 -271T128 -228Q115 -219 102 -169T74 -44T40 124T-3 314T-59 501T-131 663T-221 777T-333 820Q-388 820 -418 796T-461 732T-472
641T-460 536T-433 429T-402 333T-376 260T-363 223Q-360 208 -364 201T-376 194T-390 203T-399 226Q-400 233 -412 265T-441 345T-473 451T-500 569T-510 685T-492 785T-435 855T-329 882Q-271 882 -221 868T-128 830T-50 776T14 715Q79 641 124 548Q120 641 146
715Q156 746 174 776T220 829T287 867T379 882Q423 882 463 848T541 753Q549 769 561 789T591 829T629 864T676 882Q751 892 810 879T914 839T994 773T1053 695T1097 616T1131 548Z" />
<glyph unicode="N" glyph-name="N" horiz-adv-x="929" d="M366 882Q408 882 447 850T522 763T590 634T650 477T701 305T744 132T777 -29T799 -165T810 -263T810 -308Q802 -326 779 -325T728 -302T669 -240T618 -138Q578 124 530 331Q509 419 485 503T432 653T372
759T307 800Q252 800 219 768T169 682T149 554T153 399T173 229T202 60T233 -97T259 -227T273 -317T267 -354Q244 -360 227 -348T194 -316T160 -271T116 -228Q103 -219 89 -168T59 -38T22 136T-23 330T-81 520T-153 681T-242 789T-351 820Q-372 817 -390 805T-423
778T-447 748T-463 722Q-469 712 -474 710T-483 709T-488 719T-484 735Q-478 747 -466 770T-436 817T-394 859T-341 882Q-285 889 -236 879T-144 846T-66 794T-2 730Q65 653 112 548Q109 641 134 715Q144 746 162 776T207 829T274 867T366 882Z" />
<glyph unicode="O" glyph-name="O" horiz-adv-x="1089" d="M282 956Q344 956 405 935T522 874T630 779T721 657T791 513T836 353Q858 228 842 119T780 -72T660 -201T494 -249Q401 -249 311 -202T146 -73T17 118T-60 353Q-82 478 -66 588T-4 779T116 908T282 956ZM602
-105Q673 -91 722 -39T794 91T813 266T773 468Q737 573 679 659T550 805T404 891T258 905Q187 891 139 839T67 709T47 534T87 332Q123 228 181 142T310 -4T455 -91T602 -105Z" />
<glyph unicode="P" glyph-name="P" horiz-adv-x="894" d="M203 993Q260 993 324 976T452 927T572 852T670 756T733 646T748 526T701 402T577 280Q523 241 463 221T339 194T212 192T87 212Q102 127 116 43T144 -118T170 -261T191 -378T207 -459T216 -495Q223 -511
219 -523T205 -535T182 -523T157 -475Q151 -458 139 -393T109 -230T71 -15T31 225Q-47 246 -114 273T-233 325Q-292 354 -342 384Q-343 393 -340 397Q-338 401 -331 401T-310 393Q-300 387 -273 371T-202 334T-101 292T27 254Q14 335 1 413T-23 561T-45 692T-62
797Q-161 800 -265 800T-482 800Q-512 800 -546 813T-612 846T-671 891T-717 936T-740 974T-731 995Q-721 998 -676 1000T-563 1002T-412 1003T-244 1001Q-44 998 203 993ZM283 224Q364 224 429 250T540 317T611 410T637 513T615 608T537 681Q428 739 290 763T-12
795Q-5 749 5 688T28 555T54 404T82 242Q129 234 179 229T283 224Z" />
<glyph unicode="Q" glyph-name="Q" horiz-adv-x="1062" d="M747 63Q779 34 804 5T848 -53Q882 -104 894 -145T912 -209Q916 -255 902 -278T871 -315Q854 -327 843 -332T831 -337Q833 -322 833 -302T828 -257T813 -207T785 -153Q766 -120 736 -87T667 -24Q623 -58
570 -76T454 -95Q355 -95 262 -49T93 77Q75 72 62 68T41 62Q-3 47 -15 63T-12 111Q-1 136 23 163Q-17 222 -44 289T-85 430Q-105 539 -87 635T-20 802T102 914T269 956Q362 956 451 915T613 802T739 635T811 430Q830 322 813 229T747 63ZM244 911Q173 899 123 854T48
741T25 588T61 412Q78 366 100 325T150 246Q179 254 227 258T332 255Q404 247 483 220T634 148Q652 137 669 126T702 102Q735 136 755 183T782 285T782 403T750 530Q716 621 660 696T535 824T391 899T244 911ZM566 31Q571 31 577 33Q572 35 568 37T558 42Q495 73
426 88T292 106Q358 60 428 40T566 31Z" />
<glyph unicode="R" glyph-name="R" horiz-adv-x="1069" d="M2020 -188Q2045 -172 2059 -170T2080 -173T2084 -190T2073 -214Q2065 -224 2037 -253T1964 -318T1858 -392T1722 -459T1563 -502T1383 -506T1188 -452T982 -325T769 -108T553 215Q492 205 430 207T306
219T187 246T78 283Q97 178 115 80T147 -98T172 -228T187 -290Q195 -313 192 -329T179 -346T155 -328T126 -260Q120 -239 109 -184T83 -53T53 116T19 307Q-23 324 -57 341T-116 371Q-145 386 -167 400Q-168 409 -165 413Q-163 417 -156 417T-135 409Q-123 401 -85
380T15 332Q4 399 -7 466T-29 595T-49 714T-65 816H-306Q-336 816 -369 829T-435 862T-496 907T-541 952T-564 990T-556 1011Q-546 1014 -501 1016T-387 1018T-236 1019T-68 1017Q132 1014 379 1009Q436 1009 500 992T628 943T747 868T845 772T908 662T923 542T876
419T752 296Q715 269 675 252T590 223L595 222Q757 -15 972 -156Q1063 -216 1175 -261T1419 -318T1701 -303T2020 -188ZM73 309Q150 281 246 261T458 240Q539 240 604 266T715 333T786 426T812 529T790 624T713 697Q644 733 563 755T390 791T197 809T-15 815Q-7
767 3 708T24 584T48 449T73 309Z" />
<glyph unicode="S" glyph-name="S" horiz-adv-x="1186" d="M883 686Q874 748 825 796Q804 817 772 836T695 872T588 897T446 907Q368 907 297 893T170 853T76 793T25 721T28 640T97 558T242 480T475 411Q602 383 708 353T895 281T1027 180T1094 34Q1109 -53 1082
-116T995 -220T847 -280T651 -300Q544 -300 439 -280T249 -224T107 -136T39 -22Q33 11 45 31T80 60T129 65T180 48Q202 36 215 10T228 -43T211 -96T156 -132Q169 -150 196 -167T259 -200T339 -229T426 -251T514 -266T595 -272Q691 -272 769 -247T894 -180T952 -85T925
25T795 134T544 230Q394 270 279 299T83 366T-47 456T-110 596Q-120 654 -101 701T-41 787T56 852T178 898T311 926T444 935Q540 935 620 918T761 871T861 802T916 717Q931 673 927 643T906 593T864 566T814 557Q795 557 778 564T747 582T725 608T713 639Q710 655
714 670T727 697T753 716T790 723Q804 723 820 717T851 704Q867 696 883 686Z" />
<glyph unicode="T" glyph-name="T" horiz-adv-x="620" d="M659 943Q710 940 739 923T779 883T783 837T753 798Q740 789 685 784T550 775T370 772T171 773Q179 731 192 657T222 489T258 289T296 77T333 -127T366 -304T391 -433T405 -495Q414 -518 411 -535T398
-553T374 -534T344 -464Q337 -442 326 -385T299 -249T267 -74T233 123T198 324T166 511T140 667T122 774Q56 775 -6 777T-122 783T-221 790T-295 799Q-373 811 -428 835T-521 883Q-564 911 -593 943Q-525 929 -441 922T-264 913T-74 913T118 918T299 927T458 936T582
942T659 943Z" />
<glyph unicode="U" glyph-name="U" horiz-adv-x="900" d="M18 911Q21 896 27 839T46 697T76 510T119 302T179 98T258 -77T357 -200T479 -247Q533 -247 568 -215T625 -128T654 1T662 158T653 329T633 502T608 662T582 796T562 890T553 931Q551 943 554 948T562
952T571 946T578 931Q579 928 588 889T612 785T642 635T671 454T694 259T704 65T693 -113T654 -259T580 -358T466 -395Q380 -395 311 -357T186 -254T87 -102T11 82T-47 281T-90 480T-122 662T-147 809Q-150 824 -141 848T-115 897T-79 941T-39 967T-5 962T18 911Z"
/>
<glyph unicode="V" glyph-name="V" horiz-adv-x="915" d="M722 948Q732 964 743 969T764 970T778 952T777 917Q775 910 768 881T748 807T721 703T687 576T649 434T609 286Q539 24 451 -304Q462 -322 470 -339Q477 -353 480 -369T479 -395Q474 -405 456 -412T414
-422T367 -421T327 -404Q319 -398 301 -351T255 -230T190 -60T107 141T7 353T-109 557T-240 734T-386 867Q-412 884 -422 900T-426 928T-392 943T-318 938Q-287 932 -245 909T-151 833T-37 695T96 480T247 173T417 -243Q422 -227 436 -171T471 -32T515 151T564
356T614 561T660 743T698 879T722 948Z" />
<glyph unicode="W" glyph-name="W" horiz-adv-x="1085" d="M899 948Q906 964 916 969T933 970T945 952T945 917Q943 907 934 846T910 693T878 485T842 251T806 18T774 -186T750 -333T738 -395Q734 -405 719 -412T685 -422T646 -421T613 -404Q607 -398 585 -350T530
-225T457 -51T373 151Q360 82 346 4T318 -144Q303 -224 288 -304Q298 -322 305 -339Q311 -353 314 -369T314 -395Q310 -405 295 -412T261 -422T222 -421T188 -404Q181 -398 165 -351T123 -230T65 -60T-10 141T-98 353T-200 557T-314 734T-439 867Q-462 884 -471
900T-474 928T-447 943T-385 938Q-359 932 -324 909T-244 833T-145 695T-29 480T105 173T258 -243Q264 -218 273 -159T291 -28T311 118T333 248Q291 349 252 445T180 620T124 750T93 818Q81 839 81 857T89 887T113 906T145 910T179 894T210 857Q233 815 254 768T300
656T360 507T443 305T559 37T720 -314Q724 -298 732 -239T751 -92T776 103T804 321T833 538T859 731T882 876T899 948Z" />
<glyph unicode="X" glyph-name="X" horiz-adv-x="871" d="M736 948Q774 954 797 952T830 941T836 922T813 899Q759 891 706 841T603 713T506 536T418 333Q473 262 528 192T633 57T726 -62T804 -159T860 -229T889 -262Q909 -282 916 -300T917 -325T888 -319T825
-262Q807 -243 765 -192T665 -67T538 95T396 278Q355 171 322 70T263 -112T221 -242T200 -296Q190 -305 171 -307T131 -309T93 -302T68 -290Q65 -288 70 -257T87 -174T118 -54T161 94T216 257T283 426Q208 523 141 611T21 767Q-40 846 -91 915Q-107 936 -109 950T-105
968T-85 966T-56 942Q-50 934 -19 894T62 790T173 647T305 477Q348 572 397 657T500 807T614 910T736 948Z" />
<glyph unicode="Y" glyph-name="Y" horiz-adv-x="985" d="M774 948Q812 954 836 952T869 941T875 922T852 899Q807 893 769 852T698 744T639 591T592 408T553 211T523 15T500 -166T483 -316T471 -420T461 -463Q451 -472 432 -474T392 -476T354 -469T329 -457Q325
-454 326 -427T331 -359T342 -265T356 -159Q373 -33 397 124Q251 340 134 514Q84 588 36 660T-52 790T-117 887T-149 933Q-160 948 -160 957T-154 970T-136 971T-111 955Q-101 946 -75 910T-13 819T65 699T152 565T238 430T316 308T375 216T409 167Q420 332 444
453T501 659T571 799T645 885T715 930T774 948Z" />
<glyph unicode="Z" glyph-name="Z" horiz-adv-x="833" d="M1695 -445Q1720 -429 1735 -427T1756 -430T1760 -447T1748 -470Q1740 -480 1714 -507T1644 -570T1543 -642T1414 -709T1262 -754T1090 -765T903 -725T704 -618T499 -430T289 -145Q267 -187 249 -220T216
-276Q169 -349 123 -391T39 -455Q-5 -481 -44 -488Q-2 -428 41 -347T128 -172T213 23T295 225T370 419T436 592T489 732T527 824Q511 819 493 813T455 802Q389 784 306 770T133 750Q45 744 -40 746T-194 756Q-228 759 -256 763T-304 771T-335 776T-345 777Q-357
780 -363 787T-369 803T-365 818T-350 823Q-346 823 -300 816T-183 802Q-112 796 -27 796T147 803Q235 811 315 826T459 861Q513 876 548 891T596 911Q597 912 598 912T600 914Q607 919 613 919Q647 928 672 903T701 832Q703 813 686 759T638 628T569 458T486 267T397
76T313 -96Q340 -132 383 -181T484 -285T616 -391T777 -486T967 -554T1184 -580T1427 -548T1695 -445Z" />
<glyph unicode="[" glyph-name="bracketleft" horiz-adv-x="510" d="M-43 176Q-23 204 3 226Q26 245 58 261T136 277Q180 277 235 267T342 226T436 137T495 -18Q503 -66 489 -129T431 -259T309 -393T112 -516T-173 -613T-557 -669T-1050 -668T-1665 -596Q-1985
-543 -2241 -513T-2694 -475T-3032 -478T-3264 -523T-3395 -606T-3434 -726Q-3432 -756 -3436 -768T-3447 -779T-3459 -765T-3465 -734Q-3465 -727 -3465 -705T-3459 -653T-3435 -585T-3381 -511T-3286 -438T-3141 -374T-2932 -329T-2650 -309T-2283 -324T-1819
-382Q-1528 -429 -1287 -452T-846 -480T-489 -474T-207 -440T9 -385T168 -315Q402 -184 409 30Q403 63 381 100T324 170T248 224T160 250T71 235T-13 164Q-27 146 -33 146T-42 151T-44 167T-43 176Z" />
<glyph unicode="\" glyph-name="backslash" horiz-adv-x="490" d="M-24 502Q-66 553 -85 580T-105 615T-92 611T-52 569Q3 506 53 449T152 334T253 219T360 95Q427 18 462 -28T512 -98Q530 -126 530 -137Q451 -43 370 49T216 225T80 380T-24 502Z" />
<glyph unicode="]" glyph-name="bracketright" horiz-adv-x="510" d="M-43 176Q-23 204 3 226Q26 245 58 261T136 277Q180 277 235 267T342 226T436 137T495 -18Q503 -66 496 -125T457 -245T369 -364T222 -471T6 -552T-290 -595T-674 -587T-1158 -516Q-1464 -455
-1713 -428T-2158 -400T-2497 -426T-2733 -495T-2870 -598T-2912 -726Q-2910 -756 -2914 -768T-2925 -779T-2937 -765T-2943 -734Q-2943 -725 -2943 -694T-2928 -621T-2876 -531T-2764 -440T-2573 -363T-2279 -318T-1861 -318T-1297 -382Q-1059 -419 -864 -436T-510
-455T-227 -443T-8 -407T155 -353T270 -287Q435 -164 409 30Q403 63 381 100T324 170T248 224T160 250T71 235T-13 164Q-27 146 -33 146T-42 151T-44 167T-43 176Z" />
<glyph unicode="^" glyph-name="asciicircum" horiz-adv-x="517" d="M349 599Q348 585 333 573T296 552T254 542T219 547Q207 553 184 574T136 618T90 659T61 677Q53 677 41 660T15 624T-13 590T-40 583Q-49 587 -45 602T-29 638T-1 682T33 724T66 756T90 769Q98
769 121 759T173 734T233 699T290 661T333 626T349 599Z" />
<glyph unicode="_" glyph-name="underscore" horiz-adv-x="490" d="M367 -12Q395 -14 414 -33T441 -75T446 -116T426 -135Q391 -135 359 -135T296 -135T232 -134T163 -134Q120 -134 92 -115T46 -73Q26 -47 14 -12Q66 -17 117 -17T214 -14T299 -11T367 -12Z" />
<glyph unicode="`" glyph-name="grave" horiz-adv-x="667" d="M-85 748Q-77 774 -53 776T4 766T75 730T148 682T211 634T256 599Q265 592 269 583T272 566T265 556T247 562Q239 568 210 578T142 603T60 635T-17 672T-71 710T-85 748Z" />
<glyph unicode="a" glyph-name="a" horiz-adv-x="712" d="M693 186Q707 186 709 172Q709 171 704 158T687 126T658 84T617 42T566 10T503 -3Q467 -3 435 20T377 73T335 126T317 154Q316 151 306 127T276 73T226 21T155 -3Q111 -3 76 14T16 62T-22 131T-36 214T-23
302T21 388Q53 432 92 454T173 484Q210 491 244 489T303 479T342 463T352 446Q347 438 341 439T324 444T295 454T246 459Q218 459 192 447T143 413T107 362T88 301Q82 253 93 217T122 155T164 116T205 103Q238 103 256 123T284 172T296 236T301 300T308 349T326
369Q339 369 354 348T388 295T427 226T471 157T520 104T572 82Q592 82 607 90T634 110Q646 122 655 138L679 177Q680 181 684 183T693 186Z" />
<glyph unicode="b" glyph-name="b" horiz-adv-x="662" d="M331 468Q387 468 429 448T498 395T539 321T552 239T534 161T486 99Q449 69 402 54T309 33T222 27T157 30Q158 -9 153 -39T135 -88T106 -115T65 -114Q52 -110 33 -60T-6 68T-43 246T-68 447T-72 647T-44
821T24 944T142 991Q184 991 202 959T222 873T212 753T182 616T141 480T99 362Q106 322 113 285T127 216Q133 256 146 300T182 382T242 444T331 468ZM325 90Q345 105 359 132T381 190T387 255T377 318T348 369T299 397Q275 403 255 393T219 363T189 317T166 263T148
209T137 165Q143 135 147 112T154 73Q169 68 189 65T232 61T279 67T325 90ZM149 951Q118 951 99 930T70 871T57 784T58 677T69 557T87 433Q106 488 124 548T156 665T178 774T187 865T179 928T149 951Z" />
<glyph unicode="c" glyph-name="c" horiz-adv-x="522" d="M489 186Q493 195 498 196T508 193T515 183T515 173Q513 168 488 140T421 80T327 23T215 -3Q156 -3 110 21T29 81T-25 160T-53 241Q-60 280 -53 325T-23 408T39 472T135 498Q167 498 195 488T246 462T284
424T305 381Q309 365 310 349T309 319T299 295T279 278Q269 271 255 271Q232 271 213 286T190 325Q186 348 199 364T235 380Q255 380 274 366Q271 376 264 393T243 426T206 455T148 468Q114 468 99 439T83 365T98 268T141 172T208 98T296 68Q324 68 357 80Q384
91 419 114T489 186Z" />
<glyph unicode="d" glyph-name="d" horiz-adv-x="710" d="M708 172Q708 171 703 158T686 126T657 84T616 42T565 10T502 -3Q471 -3 442 15T389 57Q369 74 350 94T312 144Q307 131 296 107T265 58T218 15T154 -3Q110 -3 75 14T15 62T-23 131T-37 214T-24 302T20
388Q50 429 86 450T161 481Q162 481 170 482T182 477Q187 469 180 462Q162 452 145 436T115 398T92 354T79 308Q74 260 85 222T115 158T159 117T204 103Q242 103 261 128T288 188Q271 224 257 270T231 377Q210 497 210 608T232 804T305 940T435 991Q477 991 493
959T507 875T490 755T455 616T415 475T382 350Q393 298 413 255T451 186Q455 178 459 172T468 159L472 155V154Q495 122 519 102T571 82Q591 82 606 90T633 110Q645 122 655 138L678 177Q679 181 683 183T692 186Q706 186 708 172ZM374 434Q387 495 403 557T434
676T460 784T474 871T470 929T442 951Q411 951 392 930T362 871T348 784T347 677T357 557T374 434Z" />
<glyph unicode="e" glyph-name="e" horiz-adv-x="522" d="M292 356Q291 331 278 302T245 243T205 187T165 140Q191 108 224 88T297 68Q325 68 358 80Q385 91 420 114T490 186Q494 195 499 196T509 193T516 183T516 173Q514 168 489 140T422 80T328 23T216 -3Q157
-3 111 21T30 81T-24 160T-52 241Q-59 280 -52 325T-22 408T40 472T136 498Q182 498 212 485T260 450T285 404T292 356ZM152 469Q118 469 102 439T86 363T101 266T144 168Q162 186 182 209T221 258T250 309T262 357Q261 388 252 409T227 444T192 463T152 469Z"
/>
<glyph unicode="f" glyph-name="f" horiz-adv-x="456" d="M193 -169Q197 -214 193 -250T178 -310T147 -343T102 -344Q92 -341 76 -302T42 -197T6 -46T-27 136T-51 332T-62 528T-55 707T-22 854T41 954T139 991Q177 991 195 965T218 895T216 794T193 674T159 549T121
432Q137 447 154 458Q166 466 185 466T226 461T270 448T311 431T343 417T361 410Q367 410 370 412T376 417T381 420T389 417Q394 413 395 408T392 392T379 366T353 324Q342 307 325 306T286 312T241 332T195 356T155 375T125 377Q115 372 109 366T99 354Q113 262
129 176T159 18T182 -103T193 -169ZM146 951Q107 951 88 909T65 795T66 632T87 441Q106 496 123 555T154 670T176 778T184 867T176 928T146 951Z" />
<glyph unicode="g" glyph-name="g" horiz-adv-x="560" d="M457 82Q503 -34 511 -117T500 -256T439 -340T345 -377T236 -375T127 -339Q65 -309 42 -269T24 -185T56 -93T123 -1Q66 8 27 48T-28 144T-34 266T19 388Q51 432 90 454T170 484Q207 491 241 489T301 479T340
463T350 446Q345 438 339 439T322 444T292 454T243 459Q215 459 189 447T141 413T104 362T85 301Q80 253 90 217T120 155T161 116T202 103Q236 103 254 123T282 172T294 236T299 300T306 349T324 369Q333 369 344 357T366 324T388 278T410 225Q434 162 457 82ZM315
155Q305 124 289 96Q275 72 255 48T206 10L204 8Q169 -9 141 -37T96 -96T73 -159T78 -217T118 -259T199 -275Q251 -275 283 -258T333 -210T354 -139T353 -50T338 50T315 155Z" />
<glyph unicode="h" glyph-name="h" horiz-adv-x="693" d="M135 169Q147 222 165 281T203 389T244 471T284 504Q306 504 327 473T369 395T411 293T455 192T502 114T554 82Q574 82 589 90T616 110Q628 122 637 138Q644 148 649 157Q654 165 657 171T661 177Q661
181 665 183T675 186Q680 186 685 182T691 172Q691 171 686 158T669 126T640 84T599 42T548 10T485 -3Q448 -3 417 19T359 76T313 150T277 224T251 281T234 305Q220 307 210 287T191 234T178 162T169 89T165 29T163 -1Q164 -42 159 -73T143 -125T113 -153T71 -153Q58
-149 39 -99T-1 29T-38 207T-63 408T-67 609T-40 783T29 906T147 953Q189 953 207 921T227 836T218 716T187 578T146 442T105 324Q113 282 120 243T135 169ZM155 912Q124 912 105 891T76 832T64 745T64 638T75 518T93 395Q112 450 130 509T162 626T184 736T193
827T185 889T155 912Z" />
<glyph unicode="i" glyph-name="i" horiz-adv-x="477" d="M107 582Q72 582 44 606T9 665Q3 699 23 723T78 747Q113 747 141 723T175 665Q181 630 162 606T107 582ZM458 186Q472 186 474 172Q474 171 468 158T448 126T416 84T373 42T320 10T256 -3Q207 -3 175 22T124
85T94 167T78 249T69 312T59 338Q51 313 40 281T17 221T-2 171T-12 147Q-16 140 -22 139T-34 139T-43 147T-43 159Q-12 214 6 274T42 386T81 470T141 504Q157 504 169 486T189 438T205 371T219 293T234 216T253 148T278 100T313 82Q333 82 352 90T387 110Q405 122
421 138L444 177Q445 181 449 183T458 186Z" />
<glyph unicode="j" glyph-name="j" horiz-adv-x="476" d="M117 582Q82 582 54 606T19 665Q13 699 33 723T88 747Q122 747 150 723T184 665Q190 630 171 606T117 582ZM362 1Q389 -136 379 -218T330 -338T232 -374T101 -336Q26 -300 -8 -251T-44 -147T-17 -37T63
68Q76 81 93 90T127 106T162 119T191 131Q179 205 168 264Q163 289 158 313T149 356T141 386T134 398Q129 381 119 358T94 310T64 257T32 207T2 164T-24 135Q-32 128 -40 126T-53 127T-58 137T-46 154Q-21 177 0 212T40 286T78 364T117 434T159 484T210 504Q243
504 260 477T291 389T320 234T362 1ZM126 -268Q166 -278 189 -250T220 -168T222 -43T199 103H198Q137 81 98 48T38 -24T16 -101T26 -175T64 -234T126 -268Z" />
<glyph unicode="k" glyph-name="k" horiz-adv-x="611" d="M278 513Q336 524 374 504T431 447T446 364T419 278Q400 247 370 227T304 196T230 184T157 189Q169 169 195 135T262 64T359 -7T489 -60T653 -77T854 -41Q866 -31 873 -30T883 -31T885 -42T880 -56Q875
-64 856 -87T806 -137T733 -189T639 -224T528 -225T405 -173T272 -50T132 163Q140 124 145 96T151 54Q155 9 151 -27T136 -87T105 -119T61 -120Q51 -117 36 -84T5 4T-26 129T-54 279T-73 441T-79 602T-65 750T-28 872T38 954T137 985Q179 985 197 953T217 868T208
748T177 610T136 474T95 356L99 333Q110 360 126 389T164 443T214 488T278 513ZM144 945Q113 945 94 924T65 865T53 778T53 671T64 551T82 427Q101 482 119 542T151 659T173 768T182 859T174 922T144 945ZM281 312Q287 336 285 362T272 406T242 429T196 419Q175
407 161 385T138 337T123 288T115 246L121 219L129 218Q147 214 171 219T217 236T257 268T281 312Z" />
<glyph unicode="l" glyph-name="l" horiz-adv-x="383" d="M-121 489Q-132 629 -114 740Q-106 787 -91 832T-52 912T10 969T98 991Q149 991 172 956T198 864T188 735T152 586Q100 407 0 181L-31 189Q57 401 106 568Q127 639 141 707T158 829T146 915T94 948Q57
948 36 911T7 813T3 674T22 515T58 356T108 217T168 119T234 82Q252 80 271 90Q288 98 308 118T351 181Q353 186 358 186T368 185T376 177T378 167Q376 162 362 135T322 77T256 22T165 -3Q124 -3 89 20T26 82T-26 171T-68 277T-99 387T-121 489Z" />
<glyph unicode="m" glyph-name="m" horiz-adv-x="1095" d="M-86 306Q-103 361 -99 405Q-98 424 -92 442T-73 474T-39 496T14 505Q56 505 73 481T90 420T78 338T49 252T17 179T-3 134Q-9 136 -11 139T-15 147T-18 155T-25 164Q-14 178 1 207T30 271T54 344T65 412T55
462T16 482Q-12 482 -12 456T4 392T49 308T106 225T161 160T199 134Q211 134 219 161T233 230T246 319T262 408T283 476T315 504H316Q318 504 320 504T324 503Q345 498 366 472T407 410T447 331T485 250Q510 202 531 169T570 134H572Q581 136 588 154T601 195Q607
220 611 251L615 286Q619 324 624 363T636 433T656 484T686 504Q708 504 729 473T771 395T813 293T857 192T904 114T956 82Q976 82 991 90T1018 110Q1030 122 1039 138L1062 177Q1063 181 1067 183T1077 186Q1090 186 1092 172Q1092 171 1087 158T1070 126T1041
84T1001 42T950 10T887 -3Q850 -3 820 19T767 73T725 144T694 215T672 270T657 292Q651 292 647 270T637 216T623 145T603 74T572 19T526 -3H517H516H509Q475 -3 447 19T396 76T355 150T324 224T300 280T284 303Q277 303 274 281T268 224T258 150T238 76T203 20T146
-3Q118 -3 94 10T47 45T7 94T-26 151Q-61 219 -86 306Z" />
<glyph unicode="n" glyph-name="n" horiz-adv-x="720" d="M23 482Q3 482 -3 468T-6 431T12 379T44 317Q54 348 61 378T68 431T57 468T23 482ZM703 186Q717 186 719 172Q719 171 714 158T697 126T668 84T627 42T576 10T513 -3Q476 -3 446 19T393 73T352 144T321
215T299 270T284 292Q275 292 269 270T257 216T242 145T221 74T189 19T142 -3Q114 -3 90 10T44 45T4 94T-29 151Q-63 219 -89 306Q-106 361 -102 405Q-101 424 -95 442T-76 474T-42 496T11 505Q49 505 66 486T86 435T81 365T58 287Q77 257 98 230T138 181T172 147T196
134Q205 134 212 161T226 230T240 319T257 408T280 476T312 504Q334 504 355 473T397 395T439 293T483 192T530 114T582 82Q602 82 617 90T644 110Q656 122 665 138L689 177Q690 181 694 183T703 186Z" />
<glyph unicode="o" glyph-name="o" horiz-adv-x="531" d="M132 486Q180 486 225 467T308 414T372 337T407 241Q416 190 406 146T370 68T305 16T218 -4Q170 -4 125 15T43 68T-20 145T-55 241Q-64 292 -54 336T-19 414T45 466T132 486ZM311 77Q338 84 355 104T380
154T385 220T365 295Q349 333 325 364T272 416T215 445T158 447Q131 440 113 420T87 370T83 305T103 230Q119 192 143 161T195 109T254 79T311 77Z" />
<glyph unicode="p" glyph-name="p" horiz-adv-x="534" d="M169 -259Q164 -273 152 -299T124 -348T93 -384T65 -385Q58 -378 48 -350T27 -281T5 -190T-15 -90T-30 5T-37 82Q-38 130 -40 181T-42 274T-32 342T-5 369Q8 369 19 350T43 301T71 237T105 173T150 123T209
103Q227 103 245 116T274 154T282 216T256 301Q241 333 217 362T163 412T103 446T44 459Q14 459 -2 454T-28 445T-44 439T-58 446Q-64 453 -54 462T-22 479T34 488T107 484Q150 476 197 454T293 388Q337 347 367 303T412 215T428 132T415 62T371 15T297 -3Q254
-3 215 21T146 76Q111 110 79 155Q89 76 107 9T141 -112T167 -203T169 -259Z" />
<glyph unicode="q" glyph-name="q" horiz-adv-x="639" d="M506 -385Q498 -397 478 -384T435 -348T390 -299T358 -259Q341 -238 338 -194T332 -85Q311 -91 293 -93T263 -91Q250 -85 249 -71T251 -40T263 -8T276 12Q279 14 291 18T324 27Q321 57 316 89T302 155Q286
110 263 76Q243 46 213 22T140 -3Q96 -3 61 14T1 62T-37 131T-51 214T-38 302T6 388Q38 432 77 454T158 484Q195 491 229 489T289 479T328 463T338 446Q333 438 327 439T310 444T280 454T231 459Q203 459 177 447T128 413T92 362T73 301Q67 253 78 217T107 155T149
116T190 103Q224 103 242 123T269 172T281 236T286 300T293 349T311 369Q330 369 347 343T381 274T413 181T445 82Q446 78 447 75T450 68Q498 89 540 120T603 197Q604 201 608 203T617 205T625 199T625 184Q623 176 611 151T578 95T530 31T471 -26Q482 -80 490
-140T504 -252T510 -340T506 -385Z" />
<glyph unicode="r" glyph-name="r" horiz-adv-x="687" d="M667 186Q681 186 683 172Q683 171 677 158T657 126T625 84T582 42T529 10T465 -3Q412 -3 373 22T306 87T259 174T227 265T203 341T183 385Q175 393 163 397T136 404T107 409T83 414Q76 414 70 417Q69
393 61 357T41 282T13 207T-16 147Q-21 140 -27 138T-38 139T-44 149T-41 166Q-10 226 7 270T32 346T43 396T45 423Q29 428 15 432T-4 441Q-35 457 -41 491Q-46 515 -32 532T5 549Q27 549 45 535T70 501Q71 496 73 492Q75 487 76 482T77 471Q99 465 135 463T207
458T273 450T314 433Q326 420 338 389T365 318T395 238T431 162T472 105T522 82Q542 82 561 90T596 110Q614 122 630 138L653 177Q654 181 658 183T667 186Z" />
<glyph unicode="s" glyph-name="s" horiz-adv-x="405" d="M229 184Q237 176 249 160T273 123T293 77T302 26T292 -28T256 -80Q217 -117 176 -123T98 -117T30 -79T-20 -30Q-28 -19 -27 -14T-21 -8T-9 -10T1 -19Q22 -51 43 -62T81 -74T109 -69T124 -59Q127 -55 135
-47T148 -22T153 18T134 78Q115 116 83 149T18 212L-4 165Q-9 154 -23 161Q-28 165 -30 170T-30 181L-5 234Q-25 252 -43 270T-73 306Q-84 323 -95 344T-111 388T-114 431T-96 468T-52 495T27 505Q67 505 85 491T107 453T102 396T80 324Q101 306 122 287T164 248T200
213T229 184ZM29 482Q9 482 1 470T-4 439T13 396T53 348Q65 377 71 401T77 444T64 472T29 482Z" />
<glyph unicode="t" glyph-name="t" horiz-adv-x="355" d="M-213 401Q-228 409 -223 423T-199 454T-154 487T-99 517Q-110 580 -120 644T-137 762T-147 853T-145 901Q-137 918 -123 943T-92 991T-60 1025T-36 1028Q-30 1021 -23 974T-6 855T13 695T38 519Q68 513
98 506T152 491T194 478T217 472Q225 472 230 474T240 479T249 482T261 479Q267 475 268 470T263 454T241 428T198 386Q176 365 141 367T63 382Q78 307 95 251Q119 175 152 129T219 82Q236 82 254 96T288 127Q306 146 323 172Q326 177 330 181Q339 188 349 182Q361
174 357 168T351 158Q350 156 344 144T327 114T298 76T260 38T211 9T151 -3Q118 -3 92 11T44 48T6 99T-22 156T-41 209T-51 251Q-53 267 -63 317T-84 434Q-101 439 -116 440T-142 439Q-161 434 -171 426T-188 410T-200 400T-213 401Z" />
<glyph unicode="u" glyph-name="u" horiz-adv-x="690" d="M673 186Q686 186 688 172Q688 171 683 158T666 126T637 84T597 42T546 10T483 -3Q446 -3 418 15T369 60T333 118T308 176T290 221T277 239Q274 171 261 118Q255 95 247 74T226 35T198 8T160 -3Q125 -3
94 15T37 63T-10 134T-48 217T-74 305T-87 388Q-90 424 -80 451T-54 492T-25 505T-7 486Q-1 454 9 415T34 337T64 260T98 195T134 149T169 131Q193 131 208 147T233 189T247 249T254 318T257 386T260 446T267 488T282 504Q304 504 325 473T366 395T408 293T452
192T499 114T551 82Q571 82 587 90T614 110Q626 122 635 138L658 177Q659 181 663 183T673 186Z" />
<glyph unicode="v" glyph-name="v" horiz-adv-x="472" d="M333 469Q329 445 324 414T313 356Q307 324 299 292Q282 209 260 144Q251 116 239 90T214 43T185 10T152 -3Q124 -3 99 10T53 45T13 94T-20 151Q-54 219 -80 306Q-97 361 -93 405Q-92 424 -86 442T-67
474T-33 496T20 505Q58 505 75 486T96 435T90 365T68 287Q87 257 108 230T147 181T181 147T205 134Q213 134 221 153T238 202T255 271T272 348T288 420T303 476Q305 483 310 485T320 487T330 482T333 469ZM23 482Q3 482 -2 468T-3 430T16 376T50 314Q60 345 66
375T71 429T58 467T23 482Z" />
<glyph unicode="w" glyph-name="w" horiz-adv-x="761" d="M555 314Q556 329 557 352T558 399T559 443T559 475Q559 486 563 491T574 496T585 491T591 475Q592 465 591 430T589 352T585 266T579 198Q576 172 569 138T549 72T516 19T464 -3Q432 -3 404 12T351 53T305
113T268 186Q259 154 247 121T219 60T185 15T147 -3Q119 -3 95 10T49 45T9 94T-24 151Q-58 219 -84 306Q-101 361 -97 405Q-96 424 -90 442T-71 474T-37 496T16 505Q54 505 71 486T91 435T85 365T63 287Q82 257 103 230T143 181T177 147T201 134Q211 134 222 166T245
246Q233 283 226 319T216 388Q213 424 223 451T249 492T278 505T296 486Q302 454 313 415T338 337T368 260T402 195T438 149T473 131Q497 131 512 153T537 206T550 267T555 314ZM18 482Q-2 482 -7 468T-8 430T12 376T46 314Q56 345 61 375T66 429T53 467T18 482Z"
/>
<glyph unicode="x" glyph-name="x" horiz-adv-x="552" d="M274 458Q279 473 285 477T297 479T305 467T303 446Q301 440 293 413T272 344T239 252T196 147Q231 118 270 100T349 82Q392 82 420 90T466 110Q486 122 497 138L520 177Q521 181 525 183T534 186Q548
186 550 172Q550 171 545 158T528 126T495 84T446 42T377 10T286 -3Q241 -3 204 5T135 30Q97 -36 51 -90T-49 -177Q-60 -182 -67 -179T-78 -170T-81 -157T-70 -145Q-65 -142 -51 -135T-14 -107T38 -50T102 49Q49 82 15 126T-41 210Q-66 257 -80 306Q-98 361 -94
405Q-93 424 -87 442T-68 474T-34 496T19 505Q57 505 74 486T95 435T89 365T67 287Q84 261 108 232T164 174Q216 285 274 458ZM22 482Q2 482 -3 468T-4 430T16 376T49 314Q59 345 65 375T70 429T57 467T22 482Z" />
<glyph unicode="y" glyph-name="y" horiz-adv-x="571" d="M435 168Q481 52 488 -31T477 -170T416 -254T322 -291T213 -289T105 -253Q55 -229 31 -199T2 -134T9 -64T44 10T99 83T166 152Q184 170 195 178T212 189T219 190T218 181Q214 168 195 140L242 177Q245
178 236 165T215 136Q201 118 181 94Q147 76 119 49T73 -10T50 -74T56 -131T96 -173T176 -189Q229 -189 261 -172T310 -125T331 -53T330 36T315 136T292 241Q276 196 253 161Q233 131 203 107T130 82Q64 82 22 114T-39 198T-54 316T-23 450Q-13 475 -1 484T22 489T38
465T39 414Q30 352 44 309T82 240T134 201T180 189Q213 189 231 210T258 264T269 335T272 405T278 459T296 481Q305 481 316 468T339 432T362 382T385 324Q410 255 435 168Z" />
<glyph unicode="z" glyph-name="z" horiz-adv-x="313" d="M67 -226Q49 -191 51 -159T69 -95T110 -31T164 34T219 102T266 177Q269 183 275 184T286 185T294 178T293 163Q288 154 273 131T241 82Q222 53 198 19Q154 -24 124 -65Q111 -83 101 -102T85 -139T80 -176T92
-209Q108 -231 124 -238T155 -245T181 -238T195 -229Q198 -225 206 -216T220 -191T224 -151T205 -91Q188 -56 160 -26T101 32T43 85T-2 137Q-13 152 -22 173T-38 216T-44 260T-35 299Q-32 309 -19 332T10 381T45 426T75 449Q63 448 44 447T5 447T-34 452T-65 465T-81
487T-75 522Q-56 561 -40 577T-11 595T8 589T14 569Q14 563 10 547T7 515T18 488T56 480Q84 483 112 486T166 491T209 490T236 479Q243 472 226 453T184 408T134 358T101 314Q93 295 88 278T85 243T103 204T151 155Q177 129 215 98T300 14Q323 -12 340 -45T362
-114T357 -185T314 -249Q281 -281 246 -294T177 -305T115 -282T67 -226Z" />
<glyph unicode="{" glyph-name="braceleft" horiz-adv-x="510" d="M-43 176Q-23 204 3 226Q26 245 58 261T136 277Q180 277 235 267T342 226T436 137T495 -18Q502 -57 503 -107T490 -212T440 -324T337 -434T166 -532T-88 -610T-442 -657T-910 -664T-1509 -621T-2253
-520Q-2573 -468 -2828 -444T-3279 -420T-3614 -442T-3843 -504T-3972 -600T-4011 -726Q-4009 -756 -4013 -768T-4024 -779T-4036 -765T-4042 -734Q-4042 -727 -4042 -707T-4036 -658T-4011 -596T-3957 -527T-3863 -459T-3717 -399T-3508 -354T-3226 -332T-2859
-338T-2396 -382Q-2015 -430 -1700 -455T-1129 -485T-670 -480T-313 -446T-43 -391T151 -320Q433 -187 409 30Q403 63 381 100T324 170T248 224T160 250T71 235T-13 164Q-27 146 -33 146T-42 151T-44 167T-43 176Z" />
<glyph unicode="|" glyph-name="bar" horiz-adv-x="490" d="M137 562Q128 623 127 654T129 690T139 679T151 626Q164 549 176 479T201 340T225 199T250 49Q258 2 263 -34T271 -98T275 -144T276 -177Q275 -208 269 -215Q252 -102 233 11T196 226T162 414T137 562Z" />
<glyph unicode="}" glyph-name="braceright" horiz-adv-x="510" d="M-57 174Q-38 202 -12 224Q11 243 43 259T121 275Q165 275 220 265T327 224T421 135T480 -20Q491 -85 484 -156T445 -294T351 -417T191 -507T-44 -547T-365 -518Q-641 -466 -872 -454T-1269 -468T-1527
-560T-1615 -728Q-1613 -758 -1617 -770T-1628 -781T-1640 -767T-1646 -736Q-1646 -727 -1646 -698T-1638 -629T-1604 -544T-1529 -458T-1398 -384T-1194 -337T-902 -332T-505 -384Q-300 -422 -153 -425T97 -406T260 -344T355 -255Q432 -142 395 28Q389 61 366
98T309 168T233 222T146 248T56 233T-28 162Q-42 144 -48 144T-56 149T-58 165T-57 174Z" />
<glyph unicode="~" glyph-name="asciitilde" horiz-adv-x="667" d="M158 615Q108 634 69 639T10 624Q1 614 -10 611T-26 610T-30 622T-9 647Q31 681 69 690T143 696T209 678T265 652T310 635T339 641Q344 647 354 649T372 650T379 641T363 621Q335 592 309 584T258
579T208 594T158 615Z" />
</font>
</defs>
</svg>
